<?xml version="1.0" standalone="no"?>
<!DOCTYPE svg PUBLIC "-//W3C//DTD SVG 1.1//EN" "https://www.w3.org/Graphics/SVG/1.1/DTD/svg11.dtd" >
<svg xmlns="https://www.w3.org/2000/svg">
<metadata>
This is a custom SVG webfont generated by Font Squirrel.
Copyright   : Copyright c 2010 by Svetoslav Simov All rights reserved
Designer    : Svetoslav Simov
Foundry     : Svetoslav Simov
Foundry URL : httpfontfabriccom
</metadata>
<defs>
<font id="CodeBoldRegular" horiz-adv-x="1204" >
<font-face units-per-em="2048" ascent="1434" descent="-614" />
<missing-glyph horiz-adv-x="720" />
<glyph unicode=" "  horiz-adv-x="720" />
<glyph unicode="&#x09;" horiz-adv-x="720" />
<glyph unicode="&#xa0;" horiz-adv-x="720" />
<glyph unicode="!" horiz-adv-x="419" d="M45 106q0 57 36 93.5t87 36.5q59 0 95 -36t36 -94q0 -47 -37 -82.5t-94 -35.5q-49 0 -86 35.5t-37 82.5zM66 315v1119h215v-1119h-215z" />
<glyph unicode="&#x22;" horiz-adv-x="589" d="M4 922v508h199v-508h-199zM291 922v508h198v-508h-198z" />
<glyph unicode="$" horiz-adv-x="1126" d="M4 379v14l207 2l2 -2q14 -63 75.5 -119.5t131.5 -74.5v432q-21 -2 -41 -2q-95 0 -176 48q-98 58 -147 152q-44 85 -43 190v22q5 118 79 219q115 150 328 182v110h205v-110q152 -27 260 -114t127 -238l-203 -21q-14 63 -66.5 108.5t-117.5 55.5v-418q182 -6 303 -102.5 t121 -282.5q0 -199 -116 -295t-308 -133v-125h-205v125q-158 27 -279 125t-137 252zM244 939q54 -99 171 -99h5v395q-117 -29 -166 -94h-2q-34 -54 -34 -108q0 -47 26 -94zM625 199q5 -1 9 -1q120 0 179 104q33 58 33 115q0 49 -24 97q-48 95 -172 95q-12 0 -25 -1v-409z " />
<glyph unicode="&#x26;" horiz-adv-x="1228" d="M12 451q12 88 65.5 167.5t151.5 118.5q-154 90 -153 297q0 193 140 302.5t329 109.5q313 0 426 -299l-187 -57q-68 152 -239 151q-106 0 -184 -55.5t-80 -149.5q0 -86 51 -144t166 -58h665v-205h-143v-240q0 -176 -128 -286.5t-355 -114.5h-16q-253 0 -388 134 q-123 122 -123 285q0 22 2 44zM217 430v-13q0 -86 77 -155q83 -74 241 -74q129 0 204.5 57.5t75.5 151.5v232h-319h-18q-120 0 -184 -55q-69 -58 -77 -144z" />
<glyph unicode="'" horiz-adv-x="288" d="M10 928v508h197v-508h-197z" />
<glyph unicode="," horiz-adv-x="438" d="M-10 -162l149 377h240l-182 -377h-207z" />
<glyph unicode="." horiz-adv-x="319" d="M-6 119q0 55 36 91t87 36q57 0 93 -35t36 -92q0 -49 -37 -87t-92 -38q-49 0 -86 39t-37 86z" />
<glyph unicode="0" horiz-adv-x="1130" d="M-6 684q0 178 56 331.5t178 256t290 102.5q246 0 385 -205.5t139 -484.5q0 -178 -56 -330.5t-179 -255t-289 -102.5q-168 0 -290 102.5t-178 255t-56 330.5zM190 684q0 -201 86 -345t242 -144t242 145t86 344q0 201 -86 346.5t-242 145.5t-242 -145.5t-86 -346.5z" />
<glyph unicode="1" horiz-adv-x="550" d="M-109 895l388 545h165v-1440h-204v1044l-193 -262z" />
<glyph unicode="2" horiz-adv-x="1087" d="M-2 0v160l674 573h-2q111 80 133 200q5 26 5 51q0 89 -64 160q-81 91 -238 91q-127 0 -201 -74t-92 -200l-207 16q29 205 158 335t342 130q156 0 276.5 -63.5t177 -165t66.5 -216.5q2 -17 2 -34q0 -97 -49 -195q-57 -115 -170 -193l-463 -376h658v-199h-1006z" />
<glyph unicode="3" horiz-adv-x="1062" d="M-20 356l192 35q14 -92 90 -154.5t203 -62.5q160 0 246 74q79 67 78 153q0 8 -1 17q-8 78 -70.5 141.5t-189.5 63.5h-215v194h215q98 0 147.5 65.5t49.5 147.5q0 100 -81 154.5t-191 54.5q-86 0 -157 -46t-89 -126l-187 45q37 156 159 240t274 84q193 0 334 -105.5 t143 -300.5q0 -211 -131 -299q184 -108 184 -324q0 -175 -138 -302q-136 -124 -380 -123q-215 0 -336.5 106t-148.5 268z" />
<glyph unicode="4" horiz-adv-x="1083" d="M-27 324v145l760 965h160v-910h117v-200h-117v-324h-205v324h-715zM244 520h448v555z" />
<glyph unicode="5" horiz-adv-x="1093" d="M-2 326l190 77q96 -195 299 -194q152 0 235 86t81 205q0 78 -44 147.5t-122 104.5q-250 102 -504 -47l-117 53v682h914v-201h-705v-287q258 84 486 -8q143 -59 221 -179t80 -265q2 -203 -137.5 -351.5t-387.5 -148.5q-360 0 -489 326z" />
<glyph unicode="6" horiz-adv-x="1110" d="M-14 492q0 154 88 286l467 656h254l-351 -494q64 24 142 24q17 0 35 -1q98 -6 172 -48q115 -66 176 -180t61 -243q0 -201 -138 -346.5t-384 -145.5t-384 146.5t-138 345.5zM193 491.5q0 -116.5 82.5 -199.5t232.5 -83q152 0 233.5 83t81.5 199.5t-82 201.5t-233 85 q-150 0 -232.5 -85t-82.5 -201.5z" />
<glyph unicode="7" horiz-adv-x="1038" d="M-14 1231v203h1009v-142l-706 -1292h-238l672 1231h-737z" />
<glyph unicode="8" horiz-adv-x="1091" d="M-12 416q0 98 65.5 190t182.5 144q-104 43 -146.5 127t-42.5 167q2 190 139.5 296t317.5 106q217 0 338 -120t121 -284q0 -84 -48.5 -170t-132.5 -122q119 -45 180.5 -137.5t61.5 -196.5q0 -174 -137 -302t-383 -128t-381 124t-135 306zM193 414q0 -92 82.5 -164 t228.5 -72q147 0 230 72t83 164t-82 160.5t-231 68.5q-145 0 -228 -68.5t-83 -160.5zM252 1047q0 -82 66.5 -147.5t185.5 -65.5q121 0 187.5 65.5t66.5 149.5q0 96 -78 155.5t-176 59.5t-175 -59.5t-77 -157.5z" />
<glyph unicode="9" horiz-adv-x="1122" d="M-4 950q0 203 139 350.5t387 147.5t388.5 -147.5t140.5 -350.5q0 -152 -88 -288l-471 -662h-256l352 500q-67 -26 -147 -26q-16 0 -32 1q-99 6 -171 47q-117 68 -179.5 183.5t-62.5 244.5zM205 950q0 -117 83 -202.5t234.5 -85.5t234.5 86t83 202q0 119 -83 203 t-234.5 84t-234.5 -84t-83 -203z" />
<glyph unicode=":" horiz-adv-x="305" d="M-6 111q0 53 32.5 85.5t82.5 32.5q53 0 86.5 -32.5t33.5 -85.5q0 -45 -34.5 -81t-85.5 -36q-47 0 -81 36t-34 81zM-6 670q0 53 32.5 85.5t82.5 32.5q53 0 86.5 -32.5t33.5 -85.5q0 -47 -34.5 -82t-85.5 -35q-47 0 -81 36t-34 81z" />
<glyph unicode=";" horiz-adv-x="286" d="M-115 -201h207l182 377h-239zM-8 670q0 53 32.5 85.5t81.5 32.5q53 0 87 -32.5t34 -85.5q0 -47 -34.5 -82t-86.5 -35q-47 0 -80.5 36t-33.5 81z" />
<glyph unicode="?" horiz-adv-x="1044" d="M-41 1108q72 152 193.5 244t287.5 92q240 0 382 -139q138 -135 139 -321v-11q-2 -70 -22.5 -128.5t-42.5 -92t-72 -71.5t-71 -50l-81 -45q-39 -20 -49.5 -26.5t-36 -24t-33.5 -34t-8 -36.5l2 -166h-209v168q0 66 17.5 114t61.5 84.5t72.5 54t96.5 52.5h-2 q51 29 76.5 46.5t52.5 59.5q29 46 29 109q0 96 -78 168q-82 76 -224 76q-207 0 -313 -219zM311 102q0 59 37 97.5t92 38.5q59 0 97 -38t38 -98q0 -49 -38.5 -90t-96.5 -41q-53 0 -91 41t-38 90z" />
<glyph unicode="A" d="M-88 0l575 1452h152l575 -1452h-221l-172 422h-514q-119 -283 -172 -422h-223zM385 616h356l-176 506z" />
<glyph unicode="B" horiz-adv-x="1167" d="M33 0v1432h596q129 0 217 -64.5t131 -171.5q31 -67 31 -140q0 -38 -9 -78q-25 -116 -127 -190q115 -49 169.5 -146t54.5 -210q0 -174 -111 -303t-305 -129h-647zM238 201h442q98 0 153.5 68.5t55.5 160.5t-55.5 159.5t-153.5 67.5h-442v-456zM238 862h387q63 0 108 38 t55 93q5 29 6 58q0 26 -4 53q-9 55 -53.5 93t-107.5 38h-391v-373z" />
<glyph unicode="C" horiz-adv-x="1454" d="M6 713q0 295 205 514q207 213 496 213q246 0 426 -142.5t241 -386.5h-205q-55 158 -178 241t-284 83q-205 0 -352.5 -153.5t-147.5 -368.5q0 -211 147.5 -364.5t352.5 -153.5q164 0 291.5 90t183.5 252h202q-61 -246 -245.5 -396.5t-431.5 -150.5q-293 0 -496 213 q-205 219 -205 510z" />
<glyph unicode="D" horiz-adv-x="1333" d="M35 0v1432h514q170 0 307 -61.5t222 -163t130 -228.5t45 -264t-45 -263t-130 -228.5t-222 -163t-307 -60.5h-514zM242 207h307q236 0 368 150.5t132 357.5t-132.5 358.5t-367.5 151.5h-307v-1018z" />
<glyph unicode="E" horiz-adv-x="958" d="M25 0v1432h872v-207h-664v-404h650v-209h-650v-405h666v-207h-874z" />
<glyph unicode="F" horiz-adv-x="919" d="M25 0v1432h854v-207h-648v-404h574v-209h-574v-612h-206z" />
<glyph unicode="G" horiz-adv-x="1484" d="M6 714.5q0 315.5 203 521.5t502 206q109 0 213 -29t201.5 -88t169 -163.5t98.5 -241.5h-222q-39 160 -172 237.5t-288 77.5q-211 0 -354.5 -147.5t-143.5 -373t143.5 -376t354.5 -150.5q143 0 266 72t184 219h-530v207h772q-16 -188 -39 -248v2q-72 -199 -261.5 -324.5 t-391.5 -125.5q-303 0 -504 204.5t-201 520z" />
<glyph unicode="H" horiz-adv-x="1153" d="M31 0v1432h207v-605h606v605h209v-1432h-209v623h-606v-623h-207z" />
<glyph unicode="I" horiz-adv-x="796" d="M-12 0v207h266v1020h-266v205h739v-205h-266v-1020h266v-207h-739z" />
<glyph unicode="J" horiz-adv-x="827" d="M-49 0v207q258 0 421 104.5t163 309.5v606h-388v205h594v-811q0 -305 -220 -463t-570 -158z" />
<glyph unicode="K" horiz-adv-x="1075" d="M35 0v1432h205v-1432h-205zM279 664v104l499 664h260l-546 -711l604 -721h-271z" />
<glyph unicode="L" horiz-adv-x="962" d="M27 0v1432h206v-1225h674v-207h-880z" />
<glyph unicode="M" horiz-adv-x="1447" d="M39 0v1434h168l473 -697l473 697h164v-1434h-205v1010l-375 -557h-116l-375 557v-1010h-207z" />
<glyph unicode="N" d="M33 0v1436l160 -2l698 -1010v1010h205v-1434h-164l-692 1001v-1001h-207z" />
<glyph unicode="O" horiz-adv-x="1552" d="M-4 717q0 299 213 518q213 217 516 217q301 0 518 -217q213 -219 213 -518t-213 -518q-213 -217 -518 -217t-516 217q-213 219 -213 518zM205 717q0 -217 153 -371q152 -156 367 -156t371 156q152 156 151.5 371t-151.5 370q-156 156 -371 156t-367 -156 q-153 -153 -153 -370z" />
<glyph unicode="P" horiz-adv-x="1079" d="M29 0v1434h524q219 0 342 -142.5t123 -337t-123 -336t-342 -141.5h-315v-477h-209zM238 682h315q123 0 191.5 80t68.5 190.5t-68.5 191.5t-191.5 81h-315v-543z" />
<glyph unicode="Q" horiz-adv-x="1568" d="M10 717q0 299 213 518q213 217 516 217q301 0 518 -217q213 -219 213 -518q0 -246 -155 -449l237 -223v-45h-225l-135 121q-208 -137 -447 -137q-36 0 -72 3q-280 24 -450 212q-213 233 -213 518zM217 717q0 -215 154 -373q133 -133 314 -156q34 -4 67 -4q145 0 278 80 l-397 354h287l243 -221q98 133 99 320q0 213 -154 370q-152 156 -369 156q-213 0 -368 -156q-154 -157 -154 -370z" />
<glyph unicode="R" horiz-adv-x="1079" d="M35 0v1434h522q221 0 344 -136.5t123 -320.5q0 -160 -97.5 -284t-273.5 -154l453 -539h-268l-523 629v98h242q123 0 191.5 73.5t68.5 176.5q0 100 -68.5 174t-191.5 74h-317v-1225h-205z" />
<glyph unicode="S" horiz-adv-x="1134" d="M8 414l209 4l2 -31v8q10 -94 104.5 -148t204.5 -54q125 0 223.5 64.5t98.5 168.5q0 20 -6 49q-8 39 -37 65.5t-79 41t-91 21.5t-109 13q-80 8 -138 18.5t-129 36t-118 63.5t-81.5 102.5t-41.5 150.5v-2q-1 18 -1 36q0 131 79 236q70 90 187.5 140.5t246.5 50.5 q182 0 321.5 -96.5t166.5 -280.5l-205 -8q-20 90 -105 137q-81 45 -179 45h-9q-178 -4 -260 -108q-36 -46 -35 -113v-20q2 -43 24.5 -74t49.5 -49.5t76 -30.5t83 -16.5t93 -10.5q88 -10 154.5 -26.5t143.5 -48t127 -90t71 -140.5q10 -51 10 -94q0 -197 -162 -316.5 t-371 -119.5q-115 0 -225.5 42t-194 133t-96.5 212z" />
<glyph unicode="T" horiz-adv-x="1093" d="M-41 1225v209h1073v-209h-432v-1231h-207v1231h-434z" />
<glyph unicode="U" horiz-adv-x="1206" d="M37 430v1002h209v-1004q0 -111 98 -173t223 -62q123 0 221.5 63t98.5 174v1002h209v-1004q0 -137 -82 -241.5t-200 -152.5t-247 -48q-131 0 -248.5 48t-199.5 152.5t-82 243.5z" />
<glyph unicode="V" horiz-adv-x="1232" d="M-84 1432h225l426 -1072l430 1072h222l-576 -1436h-151z" />
<glyph unicode="W" horiz-adv-x="1742" d="M-61 1432h215l342 -1035l235 670h166l233 -668l345 1033h217l-478 -1444h-153l-248 694l-244 -694h-153z" />
<glyph unicode="X" horiz-adv-x="1230" d="M-86 0l518 713l-518 719h254l389 -537l391 537h252l-518 -719l518 -713h-252l-391 537l-389 -537h-254z" />
<glyph unicode="Y" horiz-adv-x="1161" d="M-102 1432h243l391 -629l392 629h245l-532 -848v-584h-209v584z" />
<glyph unicode="Z" horiz-adv-x="1091" d="M-59 115l827 1128h-766v189h971l69 -132l-811 -1116h799v-184h-1005z" />
<glyph unicode="`" horiz-adv-x="503" d="M-12 1468h278l148 -219h-195z" />
<glyph unicode="a" d="M-88 0l575 1452h152l575 -1452h-221l-172 422h-514q-119 -283 -172 -422h-223zM385 616h356l-176 506z" />
<glyph unicode="b" horiz-adv-x="1150" d="M33 0v1432h596q129 0 217 -64.5t131 -171.5q31 -67 31 -140q0 -38 -9 -78q-25 -116 -127 -190q115 -49 169.5 -146t54.5 -210q0 -174 -111 -303t-305 -129h-647zM238 201h442q98 0 153.5 68.5t55.5 160.5t-55.5 159.5t-153.5 67.5h-442v-456zM238 862h387q63 0 108 38 t55 93q5 29 6 58q0 26 -4 53q-9 55 -53.5 93t-107.5 38h-391v-373z" />
<glyph unicode="c" horiz-adv-x="1454" d="M6 713q0 295 205 514q207 213 496 213q246 0 426 -142.5t241 -386.5h-205q-55 158 -178 241t-284 83q-205 0 -352.5 -153.5t-147.5 -368.5q0 -211 147.5 -364.5t352.5 -153.5q164 0 291.5 90t183.5 252h202q-61 -246 -245.5 -396.5t-431.5 -150.5q-293 0 -496 213 q-205 219 -205 510z" />
<glyph unicode="d" horiz-adv-x="1333" d="M35 0v1432h514q170 0 307 -61.5t222 -163t130 -228.5t45 -264t-45 -263t-130 -228.5t-222 -163t-307 -60.5h-514zM242 207h307q236 0 368 150.5t132 357.5t-132.5 358.5t-367.5 151.5h-307v-1018z" />
<glyph unicode="e" horiz-adv-x="958" d="M25 0v1432h872v-207h-664v-404h650v-209h-650v-405h666v-207h-874z" />
<glyph unicode="f" horiz-adv-x="919" d="M25 0v1432h854v-207h-648v-404h574v-209h-574v-612h-206z" />
<glyph unicode="g" horiz-adv-x="1484" d="M6 714.5q0 315.5 203 521.5t502 206q109 0 213 -29t201.5 -88t169 -163.5t98.5 -241.5h-222q-39 160 -172 237.5t-288 77.5q-211 0 -354.5 -147.5t-143.5 -373t143.5 -376t354.5 -150.5q143 0 266 72t184 219h-530v207h772q-16 -188 -39 -248v2q-72 -199 -261.5 -324.5 t-391.5 -125.5q-303 0 -504 204.5t-201 520z" />
<glyph unicode="h" horiz-adv-x="1153" d="M31 0v1432h207v-605h606v605h209v-1432h-209v623h-606v-623h-207z" />
<glyph unicode="i" horiz-adv-x="765" d="M-33 0v207h266v1020h-266v205h740v-205h-267v-1020h267v-207h-740z" />
<glyph unicode="j" horiz-adv-x="843" d="M-20 0v195q254 0 412.5 109.5t158.5 316.5v606h-387v205h594v-811q0 -307 -215 -464t-563 -157z" />
<glyph unicode="k" horiz-adv-x="1075" d="M35 0v1432h205v-1432h-205zM279 664v104l499 664h260l-546 -711l604 -721h-271z" />
<glyph unicode="l" horiz-adv-x="978" d="M43 0v1432h207v-1225h674v-207h-881z" />
<glyph unicode="m" horiz-adv-x="1447" d="M39 0v1434h168l473 -697l473 697h164v-1434h-205v1010l-375 -557h-116l-375 557v-1010h-207z" />
<glyph unicode="n" d="M33 0v1436l160 -2l698 -1010v1010h205v-1434h-164l-692 1001v-1001h-207z" />
<glyph unicode="o" horiz-adv-x="1552" d="M-4 717q0 299 213 518q213 217 516 217q301 0 518 -217q213 -219 213 -518t-213 -518q-213 -217 -518 -217t-516 217q-213 219 -213 518zM205 717q0 -217 153 -371q152 -156 367 -156t371 156q152 156 151.5 371t-151.5 370q-156 156 -371 156t-367 -156 q-153 -153 -153 -370z" />
<glyph unicode="p" horiz-adv-x="1091" d="M29 0v1434h524q219 0 342 -142.5t123 -337t-123 -336t-342 -141.5h-315v-477h-209zM238 682h315q123 0 191.5 80t68.5 190.5t-68.5 191.5t-191.5 81h-315v-543z" />
<glyph unicode="q" horiz-adv-x="1585" d="M10 717q0 299 213 518q213 217 516 217q301 0 518 -217q213 -219 213 -518q0 -246 -155 -449l237 -223v-45h-225l-135 121q-208 -137 -447 -137q-36 0 -72 3q-280 24 -450 212q-213 233 -213 518zM217 717q0 -215 154 -373q133 -133 314 -156q34 -4 67 -4q145 0 278 80 l-397 354h287l243 -221q98 133 99 320q0 213 -154 370q-152 156 -369 156q-213 0 -368 -156q-154 -157 -154 -370z" />
<glyph unicode="r" horiz-adv-x="1087" d="M35 0v1434h522q221 0 344 -136.5t123 -320.5q0 -160 -97.5 -284t-273.5 -154l453 -539h-268l-523 629v98h242q123 0 191.5 73.5t68.5 176.5q0 100 -68.5 174t-191.5 74h-317v-1225h-205z" />
<glyph unicode="s" horiz-adv-x="1134" d="M8 414l209 4l2 -31v8q10 -94 104.5 -148t204.5 -54q125 0 223.5 64.5t98.5 168.5q0 20 -6 49q-8 39 -37 65.5t-79 41t-91 21.5t-109 13q-80 8 -138 18.5t-129 36t-118 63.5t-81.5 102.5t-41.5 150.5v-2q-1 18 -1 36q0 131 79 236q70 90 187.5 140.5t246.5 50.5 q182 0 321.5 -96.5t166.5 -280.5l-205 -8q-20 90 -105 137q-81 45 -179 45h-9q-178 -4 -260 -108q-36 -46 -35 -113v-20q2 -43 24.5 -74t49.5 -49.5t76 -30.5t83 -16.5t93 -10.5q88 -10 154.5 -26.5t143.5 -48t127 -90t71 -140.5q10 -51 10 -94q0 -197 -162 -316.5 t-371 -119.5q-115 0 -225.5 42t-194 133t-96.5 212z" />
<glyph unicode="t" horiz-adv-x="1093" d="M-41 1241v193h1073v-193h-432v-1247h-207v1247h-434z" />
<glyph unicode="u" horiz-adv-x="1206" d="M37 430v1002h209v-1004q0 -111 98 -173t223 -62q123 0 221.5 63t98.5 174v1002h209v-1004q0 -137 -82 -241.5t-200 -152.5t-247 -48q-131 0 -248.5 48t-199.5 152.5t-82 243.5z" />
<glyph unicode="v" horiz-adv-x="1232" d="M-84 1432h225l426 -1072l430 1072h222l-576 -1436h-151z" />
<glyph unicode="w" horiz-adv-x="1742" d="M-61 1432h215l342 -1035l235 670h166l233 -668l345 1033h217l-482 -1440h-145l-252 690l-121 -335l-127 -355h-145z" />
<glyph unicode="x" horiz-adv-x="1230" d="M-86 0l518 713l-518 719h254l389 -537l391 537h252l-518 -719l518 -713h-252l-391 537l-389 -537h-254z" />
<glyph unicode="y" horiz-adv-x="1161" d="M-102 1432h243l391 -629l392 629h245l-532 -848v-584h-209v584z" />
<glyph unicode="z" horiz-adv-x="1091" d="M-59 115l827 1128h-766v189h971l69 -132l-811 -1116h799v-184h-1005z" />
<glyph unicode="&#xa1;" horiz-adv-x="413" d="M45 1315q0 47 37 83t94 36q49 0 86 -36t37 -83q0 -57 -36 -93t-87 -36q-59 0 -95 36t-36 93zM63 -12h216v1118h-216v-1118z" />
<glyph unicode="&#xa5;" horiz-adv-x="1161" d="M-102 1432h243l391 -629l392 629h245l-424 -674h109v-142h-197l-28 -51h225v-149h-217v-416h-209v416h-227v149h233l-26 51h-207v142h118z" />
<glyph unicode="&#xa8;" horiz-adv-x="808" d="M70 1389q0 53 32.5 86.5t81.5 33.5q53 0 87 -33.5t34 -86.5q0 -45 -34.5 -80t-86.5 -35q-47 0 -80.5 35t-33.5 80zM451 1389q0 53 33.5 86.5t82.5 33.5q53 0 86 -33.5t33 -86.5q0 -43 -36 -79t-83 -36t-81.5 35t-34.5 80z" />
<glyph unicode="&#xaa;" d="M-88 0l575 1452h152l575 -1452h-221l-172 422h-514q-119 -283 -172 -422h-223zM385 616h356l-176 506z" />
<glyph unicode="&#xb2;" horiz-adv-x="1087" d="M-2 0v160l674 573h-2q111 80 133 200q5 26 5 51q0 89 -64 160q-81 91 -238 91q-127 0 -201 -74t-92 -200l-207 16q29 205 158 335t342 130q156 0 276.5 -63.5t177 -165t66.5 -216.5q2 -17 2 -34q0 -97 -49 -195q-57 -115 -170 -193l-463 -376h658v-199h-1006z" />
<glyph unicode="&#xb3;" horiz-adv-x="1062" d="M-20 356l192 35q14 -92 90 -154.5t203 -62.5q160 0 246 74q79 67 78 153q0 8 -1 17q-8 78 -70.5 141.5t-189.5 63.5h-215v194h215q98 0 147.5 65.5t49.5 147.5q0 100 -81 154.5t-191 54.5q-86 0 -157 -46t-89 -126l-187 45q37 156 159 240t274 84q193 0 334 -105.5 t143 -300.5q0 -211 -131 -299q184 -108 184 -324q0 -175 -138 -302q-136 -124 -380 -123q-215 0 -336.5 106t-148.5 268z" />
<glyph unicode="&#xb4;" horiz-adv-x="503" d="M33 1249l147 219h279l-232 -219h-194z" />
<glyph unicode="&#xb7;" horiz-adv-x="337" d="M35 647q0 53 32.5 86t82.5 33q53 0 86.5 -33t33.5 -86q0 -47 -34.5 -82t-85.5 -35q-47 0 -81 36t-34 81z" />
<glyph unicode="&#xb9;" horiz-adv-x="550" d="M-109 895l388 545h165v-1440h-204v1044l-193 -262z" />
<glyph unicode="&#xba;" horiz-adv-x="1552" d="M-4 717q0 299 213 518q213 217 516 217q301 0 518 -217q213 -219 213 -518t-213 -518q-213 -217 -518 -217t-516 217q-213 219 -213 518zM205 717q0 -217 153 -371q152 -156 367 -156t371 156q152 156 151.5 371t-151.5 370q-156 156 -371 156t-367 -156 q-153 -153 -153 -370z" />
<glyph unicode="&#xbc;" horiz-adv-x="2301" d="M-109 895l388 545h165v-1440h-204v1044l-193 -262zM1192 324v145l760 965h159v-910h117v-200h-117v-324h-204v324h-715zM1462 520h449v555z" />
<glyph unicode="&#xbd;" horiz-adv-x="2306" d="M-109 895l388 545h165v-1440h-204v1044l-193 -262zM1217 0v160l673 573h-2q111 80 133 200q5 26 5 51q0 89 -63 160q-81 91 -239 91q-127 0 -200.5 -74t-91.5 -200l-207 16q29 205 157.5 335t341.5 130q156 0 277 -63.5t177 -165t67 -216.5q2 -17 1 -34q0 -97 -48 -195 q-57 -115 -170 -193l-463 -376h657v-199h-1005z" />
<glyph unicode="&#xbe;" horiz-adv-x="2813" d="M-20 356l192 35q14 -92 90 -154.5t203 -62.5q160 0 246 74q79 67 78 153q0 8 -1 17q-8 78 -70.5 141.5t-189.5 63.5h-215v194h215q98 0 147.5 65.5t49.5 147.5q0 100 -81 154.5t-191 54.5q-86 0 -157 -46t-89 -126l-187 45q37 156 159 240t274 84q193 0 334 -105.5 t143 -300.5q0 -211 -131 -299q184 -108 184 -324q0 -175 -138 -302q-136 -124 -380 -123q-215 0 -336.5 106t-148.5 268zM1704 324v145l760 965h159v-910h117v-200h-117v-324h-204v324h-715zM1974 520h449v555z" />
<glyph unicode="&#xbf;" horiz-adv-x="1052" d="M6 446v-10q0 -186 138 -321q142 -139 382 -140q166 0 288 92.5t194 243.5l-168 97q-106 -219 -314 -220q-141 0 -223 76q-78 72 -78 169q0 63 29 109q27 42 52.5 59t76.5 46h-2q68 35 96.5 52.5t72.5 54.5t61.5 85t17.5 113v168h-209l2 -166q0 -27 -22.5 -51t-39.5 -34 l-65 -35l-81 -46q-22 -12 -72 -50t-71.5 -71.5t-42 -92t-22.5 -128.5zM391 1317q0 49 39 90t96 41q53 0 91 -41t38 -90q0 -59 -36.5 -97t-92.5 -38q-59 0 -97 38t-38 97z" />
<glyph unicode="&#xc0;" d="M-88 0l575 1452h152l575 -1452h-221l-172 422h-514q-119 -283 -172 -422h-223zM231 1726h279l147 -219h-194zM385 616h356l-176 506z" />
<glyph unicode="&#xc1;" d="M-88 0l575 1452h152l575 -1452h-221l-172 422h-514q-119 -283 -172 -422h-223zM385 616h356l-176 506zM461 1505l147 219h279l-232 -219h-194z" />
<glyph unicode="&#xc2;" d="M-88 0l575 1452h152l575 -1452h-221l-172 422h-514q-119 -283 -172 -422h-223zM238 1493l231 205h176l225 -205h-221l-98 80l-88 -80h-225zM385 616h356l-176 506z" />
<glyph unicode="&#xc3;" d="M-88 0l575 1452h152l575 -1452h-221l-172 422h-514q-119 -283 -172 -422h-223zM295 1552q61 141 149 154h9q29 0 60 -12q36 -14 60.5 -29.5t48 -24t41 6t29.5 59.5l131 -66q-51 -125 -133 -147q-13 -4 -27 -4q-23 0 -49 10q-43 16 -75 38q-25 17 -53 17q-8 0 -15 -2 q-35 -6 -57 -55zM385 616h356l-176 506z" />
<glyph unicode="&#xc4;" d="M-88 0l575 1452h152l575 -1452h-221l-172 422h-514q-119 -283 -172 -422h-223zM268 1583q0 43 32 70.5t81 27.5q53 0 85 -26.5t32 -71.5q0 -37 -33 -65.5t-84 -28.5q-47 0 -80 28.5t-33 65.5zM385 616h356l-176 506zM639 1583q0 43 33 70.5t82 27.5q51 0 82.5 -26.5 t31.5 -71.5q0 -37 -34.5 -65.5t-79.5 -28.5q-47 0 -81 28.5t-34 65.5z" />
<glyph unicode="&#xc5;" horiz-adv-x="1216" d="M-76 0l559 1413q-86 51 -86 152q0 72 50.5 123t119.5 51q72 0 123 -52.5t51 -121.5q0 -94 -77 -146l563 -1419h-221l-172 422h-515q-119 -283 -172 -422h-223zM397 616h357l-176 506zM504 1565q0 -25 19.5 -44.5t43.5 -19.5q31 0 49.5 19.5t18.5 44.5q0 27 -19.5 47 t-48.5 20q-25 0 -44 -20t-19 -47z" />
<glyph unicode="&#xc6;" horiz-adv-x="1720" d="M-70 0l803 1434h895v-207h-663v-510h649v-207h-649v-303h667v-207h-874v510h-303l-291 -510h-234zM569 717h189l20 454z" />
<glyph unicode="&#xc7;" horiz-adv-x="1431" d="M6 713q0 295 205 514q207 213 496 213q246 0 426 -142.5t241 -386.5h-205q-55 158 -178 241t-284 83q-205 0 -352.5 -153.5t-147.5 -368.5q0 -211 147.5 -364.5t352.5 -153.5q164 0 291.5 90t183.5 252h202q-59 -233 -228 -382t-400 -163l-21 -55q102 -6 155.5 -71 t31 -150t-118.5 -142q-47 -29 -108.5 -34t-119 11.5t-102.5 59.5t-57 102l119 37q74 -94 157 -72q55 14 66 62q14 57 -70 86q-55 18 -141 14l67 156q-238 31 -403 207q-205 219 -205 510z" />
<glyph unicode="&#xc8;" horiz-adv-x="958" d="M25 0h874v207h-666v405h650v209h-650v404h664v207h-872v-1432zM197 1718h278l148 -219h-195z" />
<glyph unicode="&#xc9;" horiz-adv-x="958" d="M25 0v1432h872v-207h-664v-404h650v-209h-650v-405h666v-207h-874zM350 1495l148 219h278l-231 -219h-195z" />
<glyph unicode="&#xca;" horiz-adv-x="958" d="M25 0v1432h872v-207h-664v-404h650v-209h-650v-405h666v-207h-874zM164 1501l231 205h176l226 -205h-222l-98 80l-88 -80h-225z" />
<glyph unicode="&#xcb;" horiz-adv-x="958" d="M25 0h874v207h-666v405h650v209h-650v404h664v207h-872v-1432zM188 1591q0 47 33 78t80 31q53 0 86 -31t33 -78q0 -39 -34 -69.5t-85 -30.5q-45 0 -79 31.5t-34 68.5zM563 1591q0 47 33 78t80 31q53 0 85 -30t32 -79q0 -37 -35 -68.5t-82 -31.5t-80 30.5t-33 69.5z" />
<glyph unicode="&#xcc;" horiz-adv-x="776" d="M-23 0h740v207h-266v1020h266v205h-740v-205h267v-1020h-267v-207zM31 1710h278l148 -219h-195z" />
<glyph unicode="&#xcd;" horiz-adv-x="765" d="M-33 0v207h266v1020h-266v205h740v-205h-267v-1020h267v-207h-740zM229 1497l148 219h278l-231 -219h-195z" />
<glyph unicode="&#xce;" horiz-adv-x="765" d="M-33 0v207h266v1020h-266v205h740v-205h-267v-1020h267v-207h-740zM23 1493l231 205h176l225 -205h-221l-98 80l-88 -80h-225z" />
<glyph unicode="&#xcf;" horiz-adv-x="765" d="M-33 0h740v207h-267v1020h267v205h-740v-205h266v-1020h-266v-207zM45 1589q0 47 32 77t81 30q51 0 83.5 -30t32.5 -77q0 -39 -33.5 -69.5t-82.5 -30.5q-47 0 -80 30.5t-33 69.5zM416 1589q0 47 32.5 77t81.5 30q51 0 83 -30t32 -77q0 -37 -35 -68.5t-80 -31.5 q-47 0 -80.5 30.5t-33.5 69.5z" />
<glyph unicode="&#xd1;" d="M33 0v1436l160 -2l698 -1010v1010h205v-1434h-164l-692 1001v-1001h-207zM322 1538q33 82 63.5 122t73.5 48q7 1 14 1q33 0 72 -16q47 -19 75.5 -38t54 -9.5t38.5 64.5l135 -59q-51 -137 -125 -166q-12 -4 -26 -4q-23 0 -52 11q-45 17 -78 39q-25 16 -50 16q-9 0 -17 -2 q-35 -7 -56 -58z" />
<glyph unicode="&#xd2;" horiz-adv-x="1552" d="M-4 717q0 -299 213 -518q211 -217 516 -217t518 217q213 219 213 518t-213 518q-217 217 -518 217q-303 0 -516 -217q-213 -219 -213 -518zM205 717q0 217 153 370q152 156 367 156t371 -156q152 -156 151.5 -370.5t-151.5 -370.5q-156 -156 -371 -156t-367 156 q-153 154 -153 371zM426 1724h279l147 -219h-195z" />
<glyph unicode="&#xd3;" horiz-adv-x="1552" d="M-4 717q0 299 213 518q213 217 516 217q301 0 518 -217q213 -219 213 -518t-213 -518q-213 -217 -518 -217t-516 217q-213 219 -213 518zM205 717q0 -217 153 -371q152 -156 367 -156t371 156q152 156 151.5 371t-151.5 370q-156 156 -371 156t-367 -156 q-153 -153 -153 -370zM606 1503l148 219h278l-231 -219h-195z" />
<glyph unicode="&#xd4;" horiz-adv-x="1552" d="M-4 717q0 299 213 518q213 217 516 217q301 0 518 -217q213 -219 213 -518t-213 -518q-213 -217 -518 -217t-516 217q-213 219 -213 518zM205 717q0 -217 153 -371q152 -156 367 -156t371 156q152 156 151.5 371t-151.5 370q-156 156 -371 156t-367 -156 q-153 -153 -153 -370zM418 1499l231 205h176l226 -205h-222l-98 80l-88 -80h-225z" />
<glyph unicode="&#xd5;" horiz-adv-x="1552" d="M-4 717q0 299 213 518q213 217 516 217q301 0 518 -217q213 -219 213 -518t-213 -518q-213 -217 -518 -217t-516 217q-213 219 -213 518zM205 717q0 -217 153 -371q152 -156 367 -156t371 156q152 156 151.5 371t-151.5 370q-156 156 -371 156t-367 -156 q-153 -153 -153 -370zM459 1550q63 143 141 154q7 1 15 1q33 0 71 -14q47 -17 76 -34t54.5 -8.5t39.5 57.5l135 -49q-59 -131 -129 -154q-13 -4 -28 -4q-23 0 -50 9q-45 15 -78 35q-27 15 -54 16l-14 -1q-34 -5 -54 -53z" />
<glyph unicode="&#xd6;" horiz-adv-x="1552" d="M-4 717q0 -299 213 -518q211 -217 516 -217t518 217q213 219 213 518t-213 518q-217 217 -518 217q-303 0 -516 -217q-213 -219 -213 -518zM205 717q0 217 153 370q152 156 367 156t371 -156q152 -156 151.5 -370.5t-151.5 -370.5q-156 -156 -371 -156t-367 156 q-153 154 -153 371zM432 1591q0 45 32 74t81 29q53 0 86 -29t33 -74q0 -39 -34 -68.5t-85 -29.5q-47 0 -80 29.5t-33 68.5zM807 1591q0 45 32.5 74t82.5 29q53 0 85.5 -28t32.5 -75q0 -37 -35.5 -67.5t-83 -30.5t-81 30.5t-33.5 67.5z" />
<glyph unicode="&#xd8;" horiz-adv-x="1556" d="M8 717q0 299 213 518q213 217 516 217q174 0 310 -68l67 105l229 2l-135 -217q260 -225 260 -557q0 -299 -213 -518q-211 -217 -518 -217q-162 0 -311 67l-86 -137h-227l155 250l-47 39v-2q-213 219 -213 518zM217 717q0 -213 154 -371v-2l6 -4l4 -4l553 872 q-92 35 -197 35q-215 0 -366 -156q-154 -157 -154 -370zM537 231q84 -41 200 -41q215 0 371 156q152 156 152 371q0 221 -164 385z" />
<glyph unicode="&#xd9;" horiz-adv-x="1206" d="M37 430q0 -139 82 -243.5t199.5 -152.5t248.5 -48q129 0 247 48t200 152.5t82 241.5v1004h-209v-1002q0 -111 -98.5 -174t-221.5 -63q-125 0 -223 62t-98 173v1004h-209v-1002zM303 1708h279l147 -219h-194z" />
<glyph unicode="&#xda;" horiz-adv-x="1206" d="M37 430v1002h209v-1004q0 -111 98 -173t223 -62q123 0 221.5 63t98.5 174v1002h209v-1004q0 -137 -82 -241.5t-200 -152.5t-247 -48q-131 0 -248.5 48t-199.5 152.5t-82 243.5zM428 1493l147 219h279l-231 -219h-195z" />
<glyph unicode="&#xdb;" horiz-adv-x="1206" d="M37 430v1002h209v-1004q0 -111 98 -173t223 -62q123 0 221.5 63t98.5 174v1002h209v-1004q0 -137 -82 -241.5t-200 -152.5t-247 -48q-131 0 -248.5 48t-199.5 152.5t-82 243.5zM244 1493l231 205h176l226 -205h-222l-98 80l-88 -80h-225z" />
<glyph unicode="&#xdc;" horiz-adv-x="1206" d="M37 430q0 -139 82 -243.5t199.5 -152.5t248.5 -48q129 0 247 48t200 152.5t82 241.5v1004h-209v-1002q0 -111 -98.5 -174t-221.5 -63q-125 0 -223 62t-98 173v1004h-209v-1002zM268 1591q0 47 33 78t80 31q53 0 87 -30t34 -79q0 -41 -35 -71.5t-86 -30.5q-45 0 -79 31.5 t-34 70.5zM647 1591q0 49 33 79t82 30q53 0 86 -30t33 -79q0 -39 -36 -70.5t-83 -31.5t-81 31.5t-34 70.5z" />
<glyph unicode="&#xdd;" horiz-adv-x="1161" d="M-102 1432h243l391 -629l392 629h245l-532 -848v-584h-209v584zM408 1495l147 219h279l-232 -219h-194z" />
<glyph unicode="&#xe0;" d="M-88 0l575 1452h152l575 -1452h-221l-172 422h-514q-119 -283 -172 -422h-223zM231 1726h279l147 -219h-194zM385 616h356l-176 506z" />
<glyph unicode="&#xe1;" d="M-88 0l575 1452h152l575 -1452h-221l-172 422h-514q-119 -283 -172 -422h-223zM385 616h356l-176 506zM461 1505l147 219h279l-232 -219h-194z" />
<glyph unicode="&#xe2;" d="M-88 0l575 1452h152l575 -1452h-221l-172 422h-514q-119 -283 -172 -422h-223zM238 1493l231 205h176l225 -205h-221l-98 80l-88 -80h-225zM385 616h356l-176 506z" />
<glyph unicode="&#xe3;" d="M-88 0l575 1452h152l575 -1452h-221l-172 422h-514q-119 -283 -172 -422h-223zM295 1552q61 141 149 154h9q29 0 60 -12q36 -14 60.5 -29.5t48 -24t41 6t29.5 59.5l131 -66q-51 -125 -133 -147q-13 -4 -27 -4q-23 0 -49 10q-43 16 -75 38q-25 17 -53 17q-8 0 -15 -2 q-35 -6 -57 -55zM385 616h356l-176 506z" />
<glyph unicode="&#xe4;" d="M-88 0l575 1452h152l575 -1452h-221l-172 422h-514q-119 -283 -172 -422h-223zM268 1583q0 43 32 70.5t81 27.5q53 0 85 -26.5t32 -71.5q0 -37 -33 -65.5t-84 -28.5q-47 0 -80 28.5t-33 65.5zM385 616h356l-176 506zM639 1583q0 43 33 70.5t82 27.5q51 0 82.5 -26.5 t31.5 -71.5q0 -37 -34.5 -65.5t-79.5 -28.5q-47 0 -81 28.5t-34 65.5z" />
<glyph unicode="&#xe5;" horiz-adv-x="1216" d="M-76 0l559 1413q-86 51 -86 152q0 72 50.5 123t119.5 51q72 0 123 -52.5t51 -121.5q0 -94 -77 -146l563 -1419h-221l-172 422h-515q-119 -283 -172 -422h-223zM397 616h357l-176 506zM504 1565q0 -25 19.5 -44.5t43.5 -19.5q31 0 49.5 19.5t18.5 44.5q0 27 -19.5 47 t-48.5 20q-25 0 -44 -20t-19 -47z" />
<glyph unicode="&#xe6;" horiz-adv-x="1720" d="M-70 0l803 1434h895v-207h-663v-510h649v-207h-649v-303h667v-207h-874v510h-303l-291 -510h-234zM569 717h189l20 454z" />
<glyph unicode="&#xe7;" horiz-adv-x="1431" d="M6 713q0 295 205 514q207 213 496 213q246 0 426 -142.5t241 -386.5h-205q-55 158 -178 241t-284 83q-205 0 -352.5 -153.5t-147.5 -368.5q0 -211 147.5 -364.5t352.5 -153.5q164 0 291.5 90t183.5 252h202q-59 -233 -228 -382t-400 -163l-21 -55q102 -6 155.5 -71 t31 -150t-118.5 -142q-47 -29 -108.5 -34t-119 11.5t-102.5 59.5t-57 102l119 37q74 -94 157 -72q55 14 66 62q14 57 -70 86q-55 18 -141 14l67 156q-238 31 -403 207q-205 219 -205 510z" />
<glyph unicode="&#xe8;" horiz-adv-x="958" d="M25 0h874v207h-666v405h650v209h-650v404h664v207h-872v-1432zM197 1718h278l148 -219h-195z" />
<glyph unicode="&#xe9;" horiz-adv-x="958" d="M25 0v1432h872v-207h-664v-404h650v-209h-650v-405h666v-207h-874zM350 1495l148 219h278l-231 -219h-195z" />
<glyph unicode="&#xea;" horiz-adv-x="958" d="M25 0v1432h872v-207h-664v-404h650v-209h-650v-405h666v-207h-874zM164 1501l231 205h176l226 -205h-222l-98 80l-88 -80h-225z" />
<glyph unicode="&#xeb;" horiz-adv-x="958" d="M25 0h874v207h-666v405h650v209h-650v404h664v207h-872v-1432zM188 1591q0 47 33 78t80 31q53 0 86 -31t33 -78q0 -39 -34 -69.5t-85 -30.5q-45 0 -79 31.5t-34 68.5zM563 1591q0 47 33 78t80 31q53 0 85 -30t32 -79q0 -37 -35 -68.5t-82 -31.5t-80 30.5t-33 69.5z" />
<glyph unicode="&#xec;" horiz-adv-x="776" d="M-23 0h740v207h-266v1020h266v205h-740v-205h267v-1020h-267v-207zM31 1710h278l148 -219h-195z" />
<glyph unicode="&#xed;" horiz-adv-x="765" d="M-33 0v207h266v1020h-266v205h740v-205h-267v-1020h267v-207h-740zM229 1497l148 219h278l-231 -219h-195z" />
<glyph unicode="&#xee;" horiz-adv-x="765" d="M-33 0v207h266v1020h-266v205h740v-205h-267v-1020h267v-207h-740zM23 1493l231 205h176l225 -205h-221l-98 80l-88 -80h-225z" />
<glyph unicode="&#xef;" horiz-adv-x="765" d="M-33 0h740v207h-267v1020h267v205h-740v-205h266v-1020h-266v-207zM45 1589q0 47 32 77t81 30q51 0 83.5 -30t32.5 -77q0 -39 -33.5 -69.5t-82.5 -30.5q-47 0 -80 30.5t-33 69.5zM416 1589q0 47 32.5 77t81.5 30q51 0 83 -30t32 -77q0 -37 -35 -68.5t-80 -31.5 q-47 0 -80.5 30.5t-33.5 69.5z" />
<glyph unicode="&#xf1;" d="M33 0v1436l160 -2l698 -1010v1010h205v-1434h-164l-692 1001v-1001h-207zM322 1538q33 82 63.5 122t73.5 48q7 1 14 1q33 0 72 -16q47 -19 75.5 -38t54 -9.5t38.5 64.5l135 -59q-51 -137 -125 -166q-12 -4 -26 -4q-23 0 -52 11q-45 17 -78 39q-25 16 -50 16q-9 0 -17 -2 q-35 -7 -56 -58z" />
<glyph unicode="&#xf2;" horiz-adv-x="1552" d="M-4 717q0 -299 213 -518q211 -217 516 -217t518 217q213 219 213 518t-213 518q-217 217 -518 217q-303 0 -516 -217q-213 -219 -213 -518zM205 717q0 217 153 370q152 156 367 156t371 -156q152 -156 151.5 -370.5t-151.5 -370.5q-156 -156 -371 -156t-367 156 q-153 154 -153 371zM426 1724h279l147 -219h-195z" />
<glyph unicode="&#xf3;" horiz-adv-x="1552" d="M-4 717q0 299 213 518q213 217 516 217q301 0 518 -217q213 -219 213 -518t-213 -518q-213 -217 -518 -217t-516 217q-213 219 -213 518zM205 717q0 -217 153 -371q152 -156 367 -156t371 156q152 156 151.5 371t-151.5 370q-156 156 -371 156t-367 -156 q-153 -153 -153 -370zM606 1503l148 219h278l-231 -219h-195z" />
<glyph unicode="&#xf4;" horiz-adv-x="1552" d="M-4 717q0 299 213 518q213 217 516 217q301 0 518 -217q213 -219 213 -518t-213 -518q-213 -217 -518 -217t-516 217q-213 219 -213 518zM205 717q0 -217 153 -371q152 -156 367 -156t371 156q152 156 151.5 371t-151.5 370q-156 156 -371 156t-367 -156 q-153 -153 -153 -370zM418 1499l231 205h176l226 -205h-222l-98 80l-88 -80h-225z" />
<glyph unicode="&#xf5;" horiz-adv-x="1552" d="M-4 717q0 299 213 518q213 217 516 217q301 0 518 -217q213 -219 213 -518t-213 -518q-213 -217 -518 -217t-516 217q-213 219 -213 518zM205 717q0 -217 153 -371q152 -156 367 -156t371 156q152 156 151.5 371t-151.5 370q-156 156 -371 156t-367 -156 q-153 -153 -153 -370zM459 1550q63 143 141 154q7 1 15 1q33 0 71 -14q47 -17 76 -34t54.5 -8.5t39.5 57.5l135 -49q-59 -131 -129 -154q-13 -4 -28 -4q-23 0 -50 9q-45 15 -78 35q-27 15 -54 16l-14 -1q-34 -5 -54 -53z" />
<glyph unicode="&#xf6;" horiz-adv-x="1552" d="M-4 717q0 -299 213 -518q211 -217 516 -217t518 217q213 219 213 518t-213 518q-217 217 -518 217q-303 0 -516 -217q-213 -219 -213 -518zM205 717q0 217 153 370q152 156 367 156t371 -156q152 -156 151.5 -370.5t-151.5 -370.5q-156 -156 -371 -156t-367 156 q-153 154 -153 371zM432 1591q0 45 32 74t81 29q53 0 86 -29t33 -74q0 -39 -34 -68.5t-85 -29.5q-47 0 -80 29.5t-33 68.5zM807 1591q0 45 32.5 74t82.5 29q53 0 85.5 -28t32.5 -75q0 -37 -35.5 -67.5t-83 -30.5t-81 30.5t-33.5 67.5z" />
<glyph unicode="&#xf8;" horiz-adv-x="1556" d="M8 717q0 299 213 518q213 217 516 217q174 0 310 -68l67 105l229 2l-135 -217q260 -225 260 -557q0 -299 -213 -518q-211 -217 -518 -217q-162 0 -311 67l-86 -137h-227l155 250l-47 39v-2q-213 219 -213 518zM217 717q0 -213 154 -371v-2l6 -4l4 -4l553 872 q-92 35 -197 35q-215 0 -366 -156q-154 -157 -154 -370zM537 231q84 -41 200 -41q215 0 371 156q152 156 152 371q0 221 -164 385z" />
<glyph unicode="&#xf9;" horiz-adv-x="1206" d="M37 430q0 -139 82 -243.5t199.5 -152.5t248.5 -48q129 0 247 48t200 152.5t82 241.5v1004h-209v-1002q0 -111 -98.5 -174t-221.5 -63q-125 0 -223 62t-98 173v1004h-209v-1002zM303 1708h279l147 -219h-194z" />
<glyph unicode="&#xfa;" horiz-adv-x="1206" d="M37 430v1002h209v-1004q0 -111 98 -173t223 -62q123 0 221.5 63t98.5 174v1002h209v-1004q0 -137 -82 -241.5t-200 -152.5t-247 -48q-131 0 -248.5 48t-199.5 152.5t-82 243.5zM428 1493l147 219h279l-231 -219h-195z" />
<glyph unicode="&#xfb;" horiz-adv-x="1206" d="M37 430v1002h209v-1004q0 -111 98 -173t223 -62q123 0 221.5 63t98.5 174v1002h209v-1004q0 -137 -82 -241.5t-200 -152.5t-247 -48q-131 0 -248.5 48t-199.5 152.5t-82 243.5zM244 1493l231 205h176l226 -205h-222l-98 80l-88 -80h-225z" />
<glyph unicode="&#xfc;" horiz-adv-x="1206" d="M37 430q0 -139 82 -243.5t199.5 -152.5t248.5 -48q129 0 247 48t200 152.5t82 241.5v1004h-209v-1002q0 -111 -98.5 -174t-221.5 -63q-125 0 -223 62t-98 173v1004h-209v-1002zM268 1591q0 47 33 78t80 31q53 0 87 -30t34 -79q0 -41 -35 -71.5t-86 -30.5q-45 0 -79 31.5 t-34 70.5zM647 1591q0 49 33 79t82 30q53 0 86 -30t33 -79q0 -39 -36 -70.5t-83 -31.5t-81 31.5t-34 70.5z" />
<glyph unicode="&#xfd;" horiz-adv-x="1161" d="M-102 1432h243l391 -629l392 629h245l-532 -848v-584h-209v584zM408 1495l147 219h279l-232 -219h-194z" />
<glyph unicode="&#xff;" horiz-adv-x="1161" d="M-102 1432l530 -848v-584h209v584l532 848h-245l-392 -629l-391 629h-243zM211 1593q0 53 32.5 87t82.5 34q53 0 86.5 -33.5t33.5 -87.5q0 -45 -34.5 -79.5t-85.5 -34.5q-47 0 -81 34.5t-34 79.5zM592 1593q0 53 33.5 87t83.5 34q53 0 85.5 -33.5t32.5 -87.5 q0 -43 -35.5 -78.5t-82.5 -35.5t-82 34.5t-35 79.5z" />
<glyph unicode="&#x152;" horiz-adv-x="1697" d="M-6 716.5q0 315.5 211 523.5t522 208q61 0 113 -8h774v-207h-662v-412h647v-209h-647v-409h666v-207h-760q-68 -10 -131 -10q-311 0 -522 207.5t-211 523zM203 717q0 -225 151.5 -381t372.5 -156h10h6v1077h-16q-221 -2 -372.5 -159.5t-151.5 -380.5z" />
<glyph unicode="&#x153;" horiz-adv-x="1697" d="M-6 716.5q0 315.5 211 523.5t522 208q61 0 113 -8h774v-207h-662v-412h647v-209h-647v-409h666v-207h-760q-68 -10 -131 -10q-311 0 -522 207.5t-211 523zM203 717q0 -225 151.5 -381t372.5 -156h10h6v1077h-16q-221 -2 -372.5 -159.5t-151.5 -380.5z" />
<glyph unicode="&#x178;" horiz-adv-x="1161" d="M-102 1432l530 -848v-584h209v584l532 848h-245l-392 -629l-391 629h-243zM211 1593q0 53 32.5 87t82.5 34q53 0 86.5 -33.5t33.5 -87.5q0 -45 -34.5 -79.5t-85.5 -34.5q-47 0 -81 34.5t-34 79.5zM592 1593q0 53 33.5 87t83.5 34q53 0 85.5 -33.5t32.5 -87.5 q0 -43 -35.5 -78.5t-82.5 -35.5t-82 34.5t-35 79.5z" />
<glyph unicode="&#x2c6;" horiz-adv-x="638" d="M-12 1294l231 205h176l226 -205h-222l-98 80l-88 -80h-225z" />
<glyph unicode="&#x2dc;" horiz-adv-x="712" d="M57 1303q63 158 138 170q7 1 13 0q33 0 73 -16q47 -19 75.5 -37.5t54 -9.5t38.5 65l133 -60q-55 -143 -123 -170q-13 -5 -27 -5q-16 0 -35 6q-35 11 -64.5 28.5t-58 30t-53 1t-41.5 -54.5z" />
<glyph unicode="&#x2013;" horiz-adv-x="1024" d="M205 512v205h614v-205h-614z" />
<glyph unicode="&#x2014;" horiz-adv-x="2048" d="M205 512v205h1638v-205h-1638z" />
<glyph unicode="&#x2018;" horiz-adv-x="503" d="M-12 1468h278l148 -219h-195z" />
<glyph unicode="&#x2019;" horiz-adv-x="288" d="M10 928v508h197v-508h-197z" />
<glyph unicode="&#x201c;" horiz-adv-x="589" d="M4 922v508h199v-508h-199zM291 922v508h198v-508h-198z" />
<glyph unicode="&#x201d;" horiz-adv-x="589" d="M4 922v508h199v-508h-199zM291 922v508h198v-508h-198z" />
<glyph unicode="&#x2026;" horiz-adv-x="960" d="M29 113q0 53 32.5 85.5t81.5 32.5q53 0 87 -32.5t34 -85.5q0 -45 -34.5 -81t-86.5 -36q-47 0 -80.5 36t-33.5 81zM338 113q0 53 34 85.5t83 32.5q53 0 85.5 -32.5t32.5 -85.5q0 -45 -33.5 -81t-84.5 -36q-47 0 -82 36t-35 81zM655 113q0 53 34 85.5t83 32.5 q53 0 86 -32.5t33 -85.5q0 -45 -34 -81t-85 -36q-47 0 -82 36t-35 81z" />
<glyph unicode="&#x20ac;" horiz-adv-x="1511" d="M-25 872h93q45 201 188 355q207 213 496 213q246 0 426 -142.5t241 -386.5h-205q-55 158 -178 241t-284 83q-205 0 -353 -154q-90 -98 -125 -209h355v-141h-377v-18v-33h377v-150h-344q35 -98 114 -182q147 -154 353 -153q164 0 291.5 90t183.5 252h203 q-61 -246 -246 -396.5t-432 -150.5q-293 0 -496 213q-133 141 -182 327h-99v150h76v33v18h-76v141z" />
<glyph unicode="&#x2122;" horiz-adv-x="2541" d="M-41 1225v209h1073v-209h-432v-1231h-207v1231h-434zM1133 0v1434h167l474 -697l473 697h163v-1434h-204v1010l-375 -557h-117l-375 557v-1010h-206z" />
<glyph unicode="&#xe000;" horiz-adv-x="1430" d="M0 1430h1430v-1430h-1430v1430z" />
<glyph unicode="&#xfb01;" horiz-adv-x="1533" d="M33 0v1432h854v-207h-647v-404h573v-209h-573v-612h-207zM717 0v195h266v1237h473v-205h-266v-1032h266v-195h-739z" />
<glyph unicode="&#xfb02;" horiz-adv-x="1923" d="M43 0v1432h854v-207h-647v-404h573v-209h-573v-612h-207zM977 0v1432h207v-1225h674v-207h-881z" />
<glyph unicode="&#xfb03;" horiz-adv-x="2605" d="M25 0v1432h854v-207h-648v-404h574v-209h-574v-612h-206zM944 0v1432h854v-207h-647v-404h573v-209h-573v-612h-207zM1806 0v207h267v1020h-267v205h740v-205h-267v-1020h267v-207h-740z" />
<glyph unicode="&#xfb04;" horiz-adv-x="2818" d="M25 0v1432h854v-207h-648v-404h574v-209h-574v-612h-206zM944 0v1432h854v-207h-647v-404h573v-209h-573v-612h-207zM1882 0v1432h207v-1225h674v-207h-881z" />
</font>
</defs>
</svg>
